Sie sind auf Seite 1von 2

General

Complete name : The Legend of Hercules (2014) BRRip 7


20p x264 [Dual Audio] [Hindi +English]--prisak~~{HKRG}.mkv
Format : Matroska
Format version : Version 4 / Version 2
File size : 952 MiB
Duration : 1h 38mn
Overall bit rate : 1 349 Kbps
Movie name : The Legend of Hercules (2014) BRRip 7
20p x264 [Dual Audio] [Hindi +English]--prisak~~{HKRG}
Encoded date : UTC 2014-04-27 03:05:16
Writing application : mkvmerge v6.9.1 ('Blue Panther') 32bi
t built on Apr 18 2014 18:15:44
Writing library : libebml v1.3.0 + libmatroska v1.4.1
Video
ID : 1
Format : AVC
Format/Info : Advanced Video Codec
Format profile : High@L4.1
Format settings, CABAC : Yes
Format settings, ReFrames : 4 frames
Codec ID : V_MPEG4/ISO/AVC
Duration : 1h 38mn
Bit rate : 975 Kbps
Width : 1 280 pixels
Height : 538 pixels
Display aspect ratio : 2.40:1
Frame rate mode : Constant
Frame rate : 23.976 fps
Color space : YUV
Chroma subsampling : 4:2:0
Bit depth : 8 bits
Scan type : Progressive
Bits/(Pixel*Frame) : 0.059
Stream size : 662 MiB (70%)
Title : The Legend of Hercules (2014) BRRip 7
20p x264 [Dual Audio] [Hindi +English]--prisak~~{HKRG}
Writing library : x264 core 135 r2 f0c1c53
Encoding settings : cabac=1 / ref=4 / deblock=1:-1:-1 / a
nalyse=0x3:0x133 / me=umh / subme=9 / psy=1 / psy_rd=1.00:0.15 / mixed_ref=1 / m
e_range=24 / chroma_me=1 / trellis=2 / 8x8dct=1 / cqm=0 / deadzone=21,11 / fast_
pskip=0 / chroma_qp_offset=-3 / threads=18 / lookahead_threads=1 / sliced_thread
s=0 / nr=0 / decimate=1 / interlaced=0 / bluray_compat=0 / constrained_intra=0 /
bframes=3 / b_pyramid=2 / b_adapt=2 / b_bias=0 / direct=3 / weightb=1 / open_go
p=0 / weightp=2 / keyint=250 / keyint_min=23 / scenecut=40 / intra_refresh=0 / r
c_lookahead=60 / rc=2pass / mbtree=1 / bitrate=975 / ratetol=1.0 / qcomp=0.60 /
qpmin=0 / qpmax=69 / qpstep=4 / cplxblur=20.0 / qblur=0.5 / vbv_maxrate=31250 /
vbv_bufsize=31250 / nal_hrd=none / ip_ratio=1.40 / aq=1:1.00
Language : English
Default : Yes
Forced : No
Color primaries : BT.709
Matrix coefficients : BT.709
Audio #1
ID : 2
Format : AC-3
Format/Info : Audio Coding 3
Mode extension : CM (complete main)
Format settings, Endianness : Big
Codec ID : A_AC3
Duration : 1h 38mn
Bit rate mode : Constant
Bit rate : 192 Kbps
Channel(s) : 2 channels
Channel positions : Front: L R
Sampling rate : 48.0 KHz
Bit depth : 16 bits
Compression mode : Lossy
Stream size : 135 MiB (14%)
Title : prisak {{HKRG}}
Language : Hindi
Default : Yes
Forced : No
Audio #2
ID : 3
Format : AC-3
Format/Info : Audio Coding 3
Mode extension : CM (complete main)
Format settings, Endianness : Big
Codec ID : A_AC3
Duration : 1h 38mn
Bit rate mode : Constant
Bit rate : 192 Kbps
Channel(s) : 2 channels
Channel positions : Front: L R
Sampling rate : 48.0 KHz
Bit depth : 16 bits
Compression mode : Lossy
Stream size : 135 MiB (14%)
Title : prisak {{HKRG}}
Language : English
Default : No
Forced : No