Sie sind auf Seite 1von 2

General

Unique ID : 2184173692036978031623000383588120010
74 (0xA451A7B960578D23A440F57D02230332)
Complete name : B:\Torrents\01\Ghost.Adventures.S13.H
DTV.AAC2.0.x264-BTN\Ghost.Adventures.S13E12.Dakotas.Sanatorium.of.Death.HDTV.x26
4-CRiMSON.mkv
Format : Matroska
Format version : Version 4 / Version 2
File size : 323 MiB
Duration : 42 min 0 s
Overall bit rate : 1 076 kb/s
Encoded date : UTC 2017-01-01 06:52:08
Writing application : mkvmerge v9.0.1 ('Obstacles') 64bit
Writing library : libebml v1.3.3 + libmatroska v1.4.4
Video
ID : 1
Format : AVC
Format/Info : Advanced Video Codec
Format profile : High@L3.1
Format settings, CABAC : Yes
Format settings, ReFrames : 5 frames
Codec ID : V_MPEG4/ISO/AVC
Duration : 42 min 0 s
Bit rate : 953 kb/s
Width : 720 pixels
Height : 404 pixels
Display aspect ratio : 16:9
Frame rate mode : Constant
Frame rate : 23.976 (24000/1001) FPS
Color space : YUV
Chroma subsampling : 4:2:0
Bit depth : 8 bits
Scan type : Progressive
Bits/(Pixel*Frame) : 0.137
Stream size : 286 MiB (89%)
Writing library : x264 core 148 r2744 b97ae06
Encoding settings : cabac=1 / ref=5 / deblock=1:0:0 / ana
lyse=0x3:0x113 / me=hex / subme=8 / psy=1 / psy_rd=1.00:0.15 / mixed_ref=1 / me_
range=16 / chroma_me=1 / trellis=2 / 8x8dct=1 / cqm=0 / deadzone=21,11 / fast_ps
kip=1 / chroma_qp_offset=-3 / threads=12 / lookahead_threads=2 / sliced_threads=
0 / nr=0 / decimate=1 / interlaced=0 / bluray_compat=0 / constrained_intra=0 / b
frames=3 / b_pyramid=2 / b_adapt=1 / b_bias=0 / direct=3 / weightb=1 / open_gop=
0 / weightp=2 / keyint=240 / keyint_min=23 / scenecut=40 / intra_refresh=0 / rc_
lookahead=50 / rc=crf / mbtree=1 / crf=21.0 / qcomp=0.60 / qpmin=0 / qpmax=69 /
qpstep=4 / vbv_maxrate=17500 / vbv_bufsize=17500 / crf_max=0.0 / nal_hrd=none /
filler=0 / ip_ratio=1.40 / aq=1:1.00
Language : English
Default : Yes
Forced : No
Color range : Limited
Matrix coefficients : BT.709
Audio
ID : 2
Format : AAC
Format/Info : Advanced Audio Codec
Format profile : LC
Codec ID : A_AAC
Duration : 42 min 0 s
Bit rate : 121 kb/s
Channel(s) : 2 channels
Channel positions : Front: L R
Sampling rate : 48.0 kHz
Frame rate : 46.875 FPS (1024 spf)
Compression mode : Lossy
Delay relative to video : 9 ms
Stream size : 36.4 MiB (11%)
Default : Yes
Forced : No
Menu
00:00:00.054 : en:00:00:00.054