Sie sind auf Seite 1von 2

[URL=http://imagecurl.com/viewer.php?file=61418840247738089595.

png]
[IMG]http://imagecurl.com/images/61418840247738089595_thumb.png[/IMG][/URL]
[URL=http://imagecurl.com/viewer.php?file=24165986931134661362.png]
[IMG]http://imagecurl.com/images/24165986931134661362_thumb.png[/IMG][/URL]
[URL=http://imagecurl.com/viewer.php?file=84600082864884954885.png]
[IMG]http://imagecurl.com/images/84600082864884954885_thumb.png[/IMG][/URL]
[URL=http://imagecurl.com/viewer.php?file=19225396472767255446.png]
[IMG]http://imagecurl.com/images/19225396472767255446_thumb.png[/IMG][/URL]
[URL=http://imagecurl.com/viewer.php?file=16955236231773349512.png]
[IMG]http://imagecurl.com/images/16955236231773349512_thumb.png[/IMG][/URL]
[URL=http://imagecurl.com/viewer.php?file=80989945484789862064.png]
[IMG]http://imagecurl.com/images/80989945484789862064_thumb.png[/IMG][/URL]

[mediainfo]
Video
ID : 1
Format : AVC
Format/Info : Advanced Video Codec
Format profile : High@L4.1
Format settings, CABAC : Yes
Format settings, ReFrames : 4 frames
Muxing mode : Header stripping
Codec ID : V_MPEG4/ISO/AVC
Duration : 1h 27mn
Bit rate : 10.1 Mbps
Width : 1 920 pixels
Height : 1 080 pixels
Display aspect ratio : 16:9
Frame rate mode : Constant
Frame rate : 29.970 (29970/1000) fps
Color space : YUV
Chroma subsampling : 4:2:0
Bit depth : 8 bits
Scan type : Progressive
Bits/(Pixel*Frame) : 0.163
Stream size : 6.04 GiB (92%)
Writing library : x264 core 104 r1688 0b36c6d
Encoding settings : cabac=1 / ref=4 / deblock=1:0:0 /
analyse=0x3:0x133 / me=umh / subme=7 / psy=1 / psy_rd=1.00:0.00 / mixed_ref=1 /
me_range=16 / chroma_me=1 / trellis=1 / 8x8dct=1 / cqm=0 / deadzone=21,11 /
fast_pskip=0 / chroma_qp_offset=-2 / threads=12 / sliced_threads=0 / nr=0 /
decimate=1 / interlaced=0 / constrained_intra=0 / bframes=3 / b_pyramid=2 /
b_adapt=1 / b_bias=0 / direct=1 / weightb=1 / open_gop=0 / weightp=2 / keyint=250 /
keyint_min=25 / scenecut=40 / intra_refresh=0 / rc_lookahead=40 / rc=2pass /
mbtree=1 / bitrate=10116 / ratetol=1.0 / qcomp=0.60 / qpmin=10 / qpmax=51 /
qpstep=4 / cplxblur=20.0 / qblur=0.5 / ip_ratio=1.40 / aq=1:1.00
Language : Italian
Default : Yes
Forced : No

Audio
ID : 2
Format : AC-3
Format/Info : Audio Coding 3
Mode extension : CM (complete main)
Format settings, Endianness : Big
Muxing mode : Header stripping
Codec ID : A_AC3
Duration : 1h 27mn
Bit rate mode : Constant
Bit rate : 640 Kbps
Channel(s) : 6 channels
Channel positions : Front: L C R, Side: L R, LFE
Sampling rate : 48.0 KHz
Frame rate : 31.250 fps (1536 spf)
Compression mode : Lossy
Stream size : 400 MiB (6%)
Language : Italian
Default : Yes
Forced : No

Text
ID : 3
Format : UTF-8
Codec ID : S_TEXT/UTF8
Codec ID/Info : UTF-8 Plain Text
Language : English
Default : Yes
Forced : No

[/mediainfo]